seocharger.com - Darmowe polskie torrenty

Witaj drogi Towarzyszu!, jeżeli widzisz ten dymek to znaczy że nie jesteś zarejestrowany/zalogowany. Kliknij by się zarejestrować . Rejestracja zajmie mniej niż 30 sekund, a dzięki niej zyskasz możliwość pobierania, komentowania oraz dodawania torrentów !
User:  Hasło:     






Kategorie


Najczęściej pobierane w Lipcu


Detale Torrenta


Elementary S06E09 - Nobody Lives Forever [720p.iT.WEB-DL.H.264.AC3] [Lektor PL]

S: 19L: 1P: 270
Dodał: Lukarusi Tracker:
Kondycja:Dodane:2018-07-10 15:29:12
Kategoria:Seriale  »  KryminalneRozmiar:1.34 GB
Język:Lektor PL  Lektor PLPobrali:POBRALI PLIK
Obserwuj:OBSERWUJ TORRENTAStaty:UAKTUALNIJ TRACKER
Download: Pobierz TorrentRaport:RAPORTUJ TORRENTA


produkcja: USA
gatunek: Kryminał, Dramat
scenariusz: Peter Blake, Liz Friedman
reżyseria: Michael Cuesta, John David Coles
zdjęcia: Ron Fortunato, Roy H. Wagner
muzyka: Sean Callery, Zoe Keating
czas trwania: ok. 43 min.



Londyński detektyw Sherlock Holmes wraz ze swoją terapeutką Joan Watson pomagają nowojorskiej policji w rozwiązywaniu najtrudniejszych zagadek kryminalnych.



Jonny Lee Miller - Sherlock Holmes
Lucy Liu - Joan Watson
Aidan Quinn - Tobias Gregson
Jon Michael Hill - Marcus Bell



Format : Matroska
Format version : Version 4 / Version 2
File size : 1.34 GiB
Duration : 42 min 40 s
Overall bit rate mode : Constant
Overall bit rate : 4 511 kb/s
Encoded date : UTC 2018-07-10 13:20:19

Video
ID : 1
Format : AVC
Format/INFO : Advanced Video Codec
Format profile : [email protected]
Format settings : CABAC / 2 Ref Frames
Format settings, CABAC : Yes
Format settings, ReFrames : 2 frames
Codec ID : V_MPEG4/ISO/AVC
Duration : 42 min 40 s
Bit rate mode : Constant
Bit rate : 4 198 kb/s
Width : 1 280 pixels
Height : 720 pixels
Display aspect ratio : 16:9
Frame rate mode : Constant
Frame rate : 23.976 (24000/1001) FPS
Color space : YUV
Chroma subsampling : 4:2:0
Bit depth : 8 bits
Scan type : Progressive
Bits/(Pixel*Frame) : 0.190
Stream size : 1.23 GiB (91%)
Color range : Limited
Color primaries : BT.709
Transfer characteristics : BT.709
Matrix coefficients : BT.709

Audio
ID : 2
Format : AC-3
Format/INFO : Audio Coding 3
Codec ID : A_AC3
Duration : 42 min 40 s
Bit rate mode : Constant
Bit rate : 384 kb/s
Channel(s) : 2 channels
Channel positions : Front: L R
Sampling rate : 48.0 kHz
Frame rate : 31.250 FPS (1536 SPF)
Bit depth : 16 bits
Compression mode : Lossy
Stream size : 117 MiB (9%)
Language : Polish
Service kind : Complete Main

====================================================

PODOBNE TORRENTY
Elementary [S06E09] [720p] [HDTV] [x264-PLUTONiUM] [ENG] No One Lives Forever 2: A Spy In H.A.R.M.'s Way *2002* [ENG] [ROKA1969] [EXE] The Operative: No One Lives Forever *2000* [ENG] [ROKA1969] [EXE] Elementary [S06E09] [HDTV] [x264-PLUTONiUM] [ENG] Nikt Nie Przeżył - No One Lives (2012) [720p] [HDTV] [XViD] [AC3-H1] [Lektor PL] Zemsta zza grobu / Jonah Lives (2015) [720p] [WEB-DL] [XviD] [AC3-KRT] [Lektor PL]
Szczegóły torrenta
TRACKER
Tracker Podstawowy: http://tracker.vanitycore.co:6969/announce

Multitrackery:

http://tracker.vanitycore.co:6969/announce
http://tracker.seocharger.com:8089/announce
http://agusiq-torrents.pl:6969/announce
http://tracker.torrentyorg.pl/announce
udp://tracker.publicbt.com/announce
udp://9.rarbg.com:2800/announce
udp://t1.pow7.com/announce
udp://tracker.torrentbay.to:6969/announce
udp://tracker.prq.to/announce
udp://tracker.istole.it:80/announce
udp://exodus.desync.com:6969/announce
udp://tracker.leechers-paradise.org:6969/announce
udp://9.rarbg.me:2740/announce
http://retracker.omsk.ru:2710/announce
udp://shadowshq.eddie4.nl:6969/announce
http://mgtracker.org:2710/announce
http://tracker.tfile.me/announce
udp://tracker.glotorrents.com:6969/announce
udp://eddie4.nl:6969/announce
udp://torrent.gresille.org:80/announce
udp://poloniumsurfer.tk:6969/announce
udp://tracker.pomf.se:80/announce
udp://sugoi.pomf.se:80/announce
udp://tracker.openbittorrent.com:80/announce
udp://10.rarbg.com/announce

UAKTUALNIENIE
17/07/2018 17:24:23 (Jeśeli nie widac seeda kliknij na [uaktualnij] by odswieżyć statystyki).
[Lub sprawdź programem do pobierania torrentów, ponieważ niektóre trackery nie wyświetlają statystyk]
1 file
 
KOMENTARZE


Brak komentarzy...

DODAJ KOMENTARZ

Zaloguj się aby dodawać komentarze !!!



Wstecz








WRÓĆ NA GÓRĘ