seocharger.com - Darmowe polskie torrenty

Witaj drogi Towarzyszu!, jeżeli widzisz ten dymek to znaczy że nie jesteś zarejestrowany/zalogowany. Kliknij by się zarejestrować . Rejestracja zajmie mniej niż 30 sekund, a dzięki niej zyskasz możliwość pobierania, komentowania oraz dodawania torrentów !
User:  Hasło:     






Kategorie


Najczęściej pobierane w Lipcu


Detale Torrenta


Ripper Street S03-S05 [1080p.WEB-DL.H.264.AC3] [Lektor PL]

S: 7L: 40P: 109
Dodał: Lukarusi Tracker:
Kondycja:Dodane:2018-07-09 21:28:40
Kategoria:Seriale  »  KryminalneRozmiar:62.99 GB
Język:Lektor PL  Lektor PLPobrali:POBRALI PLIK
Obserwuj:OBSERWUJ TORRENTAStaty:UAKTUALNIJ TRACKER
Download: Pobierz TorrentRaport:RAPORTUJ TORRENTA


produkcja: UK
gatunek: Dramat, Kryminał
reżyseria: Tom Shankland , Colm McCarthy, Andy Wilson
scenariusz: Richard Warlow
zdjęcia: Julian Court, Peter Robertson, P.J. Dillon
muzyka: Dominik Scherrer
czas trwania: ok. 51-52 min.



Akcja serialu osadzona jest w wiktoriańskim Londynie roku 1889, w czasach seryjnych zabójstw Kuby Rozpruwacza. W centrum wydarzeń serialu jest Dywizja H - okryty złą sławą posterunek policji. Poprzez swoje działania, próbując utrzymać porządek w przeludnionej dzielnicy Whitechapel, staje się znana na całym świecie.



Matthew Macfadyen - Edmund Reid
Jerome Flynn - Bennet Drake
Adam Rothenberg - Homer Jackson
MyAnna Buring - Long Susan
David Dawson - Fred Best
Charlene McKenna - Rose Erskine
Amanda Hale - Emily Reid
Anna Burnett - Mathilda Reid
Jake Mann - Thomas Gower



Format : Matroska
Format version : Version 4 / Version 2
File size : 3.01 GiB
Duration : 52 min 3 s
Overall bit rate mode : Variable
Overall bit rate : 8 272 kb/s
Encoded date : UTC 2018-07-07 05:46:31

Video
ID : 1
Format : AVC
Format/INFO : Advanced Video Codec
Format profile : [email protected]
Format settings : CABAC / 4 Ref Frames
Format settings, CABAC : Yes
Format settings, ReFrames : 4 frames
Codec ID : V_MPEG4/ISO/AVC
Duration : 52 min 3 s
Bit rate mode : Variable
Bit rate : 7 885 kb/s
Maximum bit rate : 12.0 Mb/s
Width : 1 920 pixels
Height : 1 080 pixels
Display aspect ratio : 16:9
Frame rate mode : Constant
Frame rate : 29.970 (30000/1001) FPS
Color space : YUV
Chroma subsampling : 4:2:0
Bit depth : 8 bits
Scan type : Progressive
Bits/(Pixel*Frame) : 0.127
Stream size : 2.87 GiB (95%)
Color range : Limited
Color primaries : BT.709
Transfer characteristics : BT.709
Matrix coefficients : BT.709

Audio
ID : 2
Format : AC-3
Format/INFO : Audio Coding 3
Codec ID : A_AC3
Duration : 52 min 3 s
Bit rate mode : Constant
Bit rate : 384 kb/s
Channel(s) : 2 channels
Channel positions : Front: L R
Sampling rate : 48.0 kHz
Frame rate : 31.250 FPS (1536 SPF)
Bit depth : 16 bits
Compression mode : Lossy
Stream size : 143 MiB (5%)
Language : Polish
Service kind : Complete Main

====================================================

PODOBNE TORRENTY
Ripper Street: Tajemnica Kuby Rozpruwacza - Ripper Street - Sezon 2 [1080p.BDRip.x264.AC3] [Lektor PL] Ripper Street: Tajemnica Kuby Rozpruwacza - Ripper Street [S02E01-E02] [480p] [HDTV] [AC3] [XviD-Ralf] [Lektor PL] Ripper Street: Tajemnica Kuby Rozpruwacza - Ripper Street [S02E03-E04] [480p] [HDTV] [AC3] [XviD-Ralf] [Lektor PL] Ripper Street: Tajemnica Kuby Rozpruwacza - Ripper Street [S02E05-E06] [480p] [HDTV] [AC3] [XviD-Ralf] [Lektor PL] Ripper Street: Tajemnica Kuby Rozpruwacza - Ripper Street [S02E07-E08] [FINAł] [480p] [HDTV] [AC3] [XviD-Ralf] [Lektor PL] Ripper Street  Tajemnica Kuby Rozpruwacza - Ripper Street *2012* [Sezon 1] [720p.HDTV.x264-DRP] [Lektor Pl] [Alusia]
Szczegóły torrenta
TRACKER
Tracker Podstawowy: http://tracker.vanitycore.co:6969/announce

Multitrackery:

http://tracker.vanitycore.co:6969/announce
http://tracker.seocharger.com:8089/announce
http://agusiq-torrents.pl:6969/announce
http://tracker.torrentyorg.pl/announce
udp://tracker.publicbt.com/announce
udp://9.rarbg.com:2800/announce
udp://t1.pow7.com/announce
udp://tracker.torrentbay.to:6969/announce
udp://tracker.prq.to/announce
udp://tracker.istole.it:80/announce
udp://exodus.desync.com:6969/announce
udp://tracker.leechers-paradise.org:6969/announce
udp://9.rarbg.me:2740/announce
http://retracker.omsk.ru:2710/announce
udp://shadowshq.eddie4.nl:6969/announce
http://mgtracker.org:2710/announce
http://tracker.tfile.me/announce
udp://tracker.glotorrents.com:6969/announce
udp://eddie4.nl:6969/announce
udp://torrent.gresille.org:80/announce
udp://poloniumsurfer.tk:6969/announce
udp://tracker.pomf.se:80/announce
udp://sugoi.pomf.se:80/announce
udp://tracker.openbittorrent.com:80/announce
udp://10.rarbg.com/announce

UAKTUALNIENIE
17/07/2018 19:21:31 (Jeśeli nie widac seeda kliknij na [uaktualnij] by odswieżyć statystyki).
[Lub sprawdź programem do pobierania torrentów, ponieważ niektóre trackery nie wyświetlają statystyk]
21 pliki
 
KOMENTARZE


+mazur212110/07/2018 15.23.11
Witam
A jest szansa na sezony 4 i 5 w 720p ?
Z góry dzieki
Pozdrawiam
Status użytkownika:   10/07/2018 15.23.11  TOP

DODAJ KOMENTARZ

Zaloguj się aby dodawać komentarze !!!



Wstecz








WRÓĆ NA GÓRĘ