seocharger.com - Darmowe polskie torrenty

Witaj drogi Towarzyszu!, jeżeli widzisz ten dymek to znaczy że nie jesteś zarejestrowany/zalogowany. Kliknij by się zarejestrować . Rejestracja zajmie mniej niż 30 sekund, a dzięki niej zyskasz możliwość pobierania, komentowania oraz dodawania torrentów !
User:  Hasło:     






Kategorie


Najczęściej pobierane w Czerwcu


Detale Torrenta


Kobiety mafii S01E03 - Hokus Pokus [480p.WEB-DL.H.264.AC3] [PL]

S: 43L: 0P: 765
Dodał: Lukarusi Tracker:
Kondycja:Dodane:2018-06-13 06:05:27
Kategoria:Seriale  »  SensacyjneRozmiar:953.23 MB
Język:Polskie Seriale  Polskie SerialePobrali:POBRALI PLIK
Obserwuj:OBSERWUJ TORRENTAStaty:UAKTUALNIJ TRACKER
Download: Pobierz TorrentRaport:RAPORTUJ TORRENTA


produkcja: Polska
gatunek: Sensacyjny
reżyseria: Patryk Vega
scenariusz: Patryk Vega, Olaf Olszewski
zdjęcia: Mirosła Kuba Brożek, Norbert Modrzejewski
muzyka: Łukasz Targosz
czas trwania: ok. 47 min.



"Kobiety mafii" to serial rozszerzający fabułę filmu Patryka Vegi pod tym samym tytułem. Po brawurowo przeprowadzonej akcji agentka ABW, Bela, podejmuje się nowego zadania. Pracując pod przykrywką, zostaje "tajniakiem" w grupie przestępczej dowodzonej przez bossa warszawskiego półświatka, Padrino. Bohaterka wchodzi coraz głębiej w świat przestępców. Spotyka kolejnych członków grupy, z którymi zaczyna ją łączyć więź emocjonalna. Bela poznaje również kobiety, związane z groźnymi gangsterami. Wkrótce losy wszystkich z nich się przecinają. Panie muszą zacząć współpracować, aby przetrwać w bezwzględnym świecie bandytów.



Olga Bołądź - "Bela"
Agnieszka Dygant - Daria "Niania"
Aleksandra Popławska - "Siekiera"
Katarzyna Warnke - "Spuchnięta Anka"
Julia Wieniawa-Narkiewicz - "Futro"
Sebastian Fabijański - "Cieniu"
Piotr Stramowski - "Żywy"
Bogusław Linda - "Padrino"
Tomasz Oświeciński - "Milimetr"
Janusz Chabior - Adam



Format : Matroska
Format version : Version 4 / Version 2
File size : 953 MiB
Duration : 47 min 7 s
Overall bit rate mode : Variable
Overall bit rate : 2 828 kb/s
Encoded date : UTC 2018-06-13 04:02:16

Video
ID : 1
Format : AVC
Format/INFO : Advanced Video Codec
Format profile : [email protected]
Format settings : CABAC / 5 Ref Frames
Format settings, CABAC : Yes
Format settings, ReFrames : 5 frames
Codec ID : V_MPEG4/ISO/AVC
Duration : 47 min 7 s
Bit rate mode : Variable
Bit rate : 2 442 kb/s
Maximum bit rate : 4 500 kb/s
Width : 720 pixels
Height : 300 pixels
Display aspect ratio : 2.35:1
Frame rate mode : Constant
Frame rate : 29.970 (30000/1001) FPS
Color space : YUV
Chroma subsampling : 4:2:0
Bit depth : 8 bits
Scan type : Progressive
Bits/(Pixel*Frame) : 0.377
Stream size : 823 MiB (86%)
Color range : Limited
Color primaries : BT.709
Transfer characteristics : BT.709
Matrix coefficients : BT.709

Audio
ID : 2
Format : AC-3
Format/INFO : Audio Coding 3
Codec ID : A_AC3
Duration : 47 min 7 s
Bit rate mode : Constant
Bit rate : 384 kb/s
Channel(s) : 2 channels
Channel positions : Front: L R
Sampling rate : 48.0 kHz
Frame rate : 31.250 FPS (1536 SPF)
Bit depth : 16 bits
Compression mode : Lossy
Stream size : 129 MiB (14%)
Language : Polish
Service kind : Complete Main

====================================================

PODOBNE TORRENTY
Kobiety mafii S01E03 - Hokus Pokus [1080p.WEB-DL.H.264.AC3] [PL] Kobiety mafii S01E03 - Hokus Pokus [720p.WEB-DL.H.264.AC3] [PL] Hokus pokus - Hocus Pocus 1993 [BRRip.480p.XviD.AC3-LTN] [Lektor PL] Kobiety mafii (2018) [S01E03] [480p] [WEBRip] [XviD] [AC3-KiT] [PL] [H1] Hokus pokus - Hocus Pocus (1993) [AC3] [DVDRip].[XviD] [Lektor PL] [D.T.A 26] Hokus Pokus (1993) [1080P] [BLURAY] [H264] [AC3-E1973] [LEKTOR PL]
Szczegóły torrenta
TRACKER
Tracker Podstawowy: http://tracker.vanitycore.co:6969/announce

Multitrackery:

http://tracker.vanitycore.co:6969/announce
http://tracker.seocharger.com:8089/announce
http://agusiq-torrents.pl:6969/announce
http://tracker.torrentyorg.pl/announce
udp://tracker.publicbt.com/announce
udp://9.rarbg.com:2800/announce
udp://t1.pow7.com/announce
udp://tracker.torrentbay.to:6969/announce
udp://tracker.prq.to/announce
udp://tracker.istole.it:80/announce
udp://exodus.desync.com:6969/announce
udp://tracker.leechers-paradise.org:6969/announce
udp://9.rarbg.me:2740/announce
http://retracker.omsk.ru:2710/announce
udp://shadowshq.eddie4.nl:6969/announce
http://mgtracker.org:2710/announce
http://tracker.tfile.me/announce
udp://tracker.glotorrents.com:6969/announce
udp://eddie4.nl:6969/announce
udp://torrent.gresille.org:80/announce
udp://poloniumsurfer.tk:6969/announce
udp://tracker.pomf.se:80/announce
udp://sugoi.pomf.se:80/announce
udp://tracker.openbittorrent.com:80/announce
udp://10.rarbg.com/announce

UAKTUALNIENIE
18/06/2018 13:54:11 (Jeśeli nie widac seeda kliknij na [uaktualnij] by odswieżyć statystyki).
[Lub sprawdź programem do pobierania torrentów, ponieważ niektóre trackery nie wyświetlają statystyk]
1 file
 
KOMENTARZE


Brak komentarzy...

DODAJ KOMENTARZ

Zaloguj się aby dodawać komentarze !!!



Wstecz








WRÓĆ NA GÓRĘ