seocharger.com - Darmowe polskie torrenty

Witaj drogi Towarzyszu!, jeżeli widzisz ten dymek to znaczy że nie jesteś zarejestrowany/zalogowany. Kliknij by się zarejestrować . Rejestracja zajmie mniej niż 30 sekund, a dzięki niej zyskasz możliwość pobierania, komentowania oraz dodawania torrentów !
User:  Hasło:     






Kategorie


Najczęściej pobierane w Lipcu


Detale Torrenta


Young Sheldon - Sezon 1 [720p.AMZN.WEB-DL.H.264.AC3] [Lektor PL]

S: 17L: 3P: 217
Dodał: Lukarusi Tracker:
Kondycja:Dodane:2018-06-12 18:17:16
Kategoria:Seriale  »  KomedioweRozmiar:9.28 GB
Język:Lektor PL  Lektor PLPobrali:POBRALI PLIK
Obserwuj:OBSERWUJ TORRENTAStaty:UAKTUALNIJ TRACKER
Download: Pobierz TorrentRaport:RAPORTUJ TORRENTA


produkcja: USA
gatunek: Komedia
scenariusz: Chuck Lorre, Steven Molaro
reżyseria: Howard Deutch, Jaffar Mahmood, Mark Cendrowski
zdjęcia: Tim Suhrstedt, Buzz Feitshans IV
muzyka: Jeff Cardoni, John Debney
czas trwania: ok. 18-21 min.



"Młody Sheldon" to prequel kultowego serialu "Teoria wielkiego podrywu" autorstwa twórców pierwowzoru – Chucka Lorre’a oraz Stevena Molaro. Jest to historia dziewięcioletniego Sheldona Coopera, który jest niezwykle utalentowanym, bardzo bystrym, ale także dość bezbronnym i naiwnym chłopcem. Dorastanie we wschodnim Teksasie nie jest dla niego łatwe – w świecie, w którym królują sport i kościół, bycie matematycznym geniuszem zdaje się jeszcze bardziej komplikować i tak trudny czas dorastania. Cała rodzina Cooperów też nie ma lekkiego życia z młodym Sheldonem. Będący szkolnym trenerem ojciec chłopca, George, często nie jest w stanie nadążyć za synem, a jego kochająca matka Mary stara się zaakceptować małego geniusza i chronić go przed niezrozumieniem i małomiasteczkową społecznością. Rodzeństwo Sheldona też nie ma łatwo, a zwłaszcza starszy brat Georgie, który ma problem z zaakceptowaniem faktu, że chodzi do jednej klasy ze swoim młodszym, dziewięcioletnim bratem. Tylko siostra bliźniaczka Missy, chociaż bywa o niego zazdrosna, jest jedyną osobą, która może powiedzieć mu prawdę.



Iain Armitage - Sheldon
Zoe Perry - Mary
Lance Barber - George Sr.
Montana Jordan - Georgie
Raegan Revord - Missy
Annie Potts - Meemaw
Ryan Phuong - Tam
Wyatt McClure - Billy Sparks
Valerie Mahaffey - Ms. MacElroy
Matt Hobby - Pastor Jeff
Brian Stepanek - Mr. Givens
Danielle Pinnock - Ms. Ingram



Format : Matroska
Format version : Version 4 / Version 2
File size : 434 MiB
Duration : 21 min 18 s
Overall bit rate mode : Variable
Overall bit rate : 2 848 kb/s
Encoded date : UTC 2018-06-12 15:25:03

Video
ID : 1
Format : AVC
Format/INFO : Advanced Video Codec
Format profile : [email protected]
Format settings : CABAC / 5 Ref Frames
Format settings, CABAC : Yes
Format settings, ReFrames : 5 frames
Codec ID : V_MPEG4/ISO/AVC
Duration : 21 min 18 s
Bit rate mode : Variable
Bit rate : 2 463 kb/s
Maximum bit rate : 4 500 kb/s
Width : 1 280 pixels
Height : 720 pixels
Display aspect ratio : 16:9
Frame rate mode : Constant
Frame rate : 23.976 (24000/1001) FPS
Color space : YUV
Chroma subsampling : 4:2:0
Bit depth : 8 bits
Scan type : Progressive
Bits/(Pixel*Frame) : 0.111
Stream size : 375 MiB (86%)
Color range : Limited
Color primaries : BT.709
Transfer characteristics : BT.709
Matrix coefficients : BT.709

Audio
ID : 2
Format : AC-3
Format/INFO : Audio Coding 3
Codec ID : A_AC3
Duration : 21 min 18 s
Bit rate mode : Constant
Bit rate : 384 kb/s
Channel(s) : 2 channels
Channel positions : Front: L R
Sampling rate : 48.0 kHz
Frame rate : 31.250 FPS (1536 SPF)
Bit depth : 16 bits
Compression mode : Lossy
Stream size : 58.5 MiB (13%)
Language : Polish
Service kind : Complete Main

====================================================

PODOBNE TORRENTY
Młody Sheldon - Young Sheldon S01E01-03 [720p] [AMZN] [WEB-DL] [x264-666] [Lektor PL] [ts559] Van Helsing [Sezon 02] [720p.AMZN.WEB-DL.DD5.1.H.264-J] [Lektor PL] Wynonna Earp - Sezon 2 [720p.AMZN.WEB-DL.H.264.AC3] [Lektor PL] Happy! *2017* [Sezon 01] [720p.AMZN.WEB-DL.DD5.1.H.264-J] [Lektor PL] 9-1-1 (2018) [Sezon 1] [720p] [AMZN] [WEB-DL] [H264] [AC3-J] [Lektor PL] Rozwód - Divorce *2018* [Sezon 02] [720p.AMZN.WEB-DL.H.264-J] [Lektor PL]
Szczegóły torrenta
TRACKER
Tracker Podstawowy: http://tracker.vanitycore.co:6969/announce

Multitrackery:

http://tracker.vanitycore.co:6969/announce
http://tracker.seocharger.com:8089/announce
http://agusiq-torrents.pl:6969/announce
http://tracker.torrentyorg.pl/announce
udp://tracker.publicbt.com/announce
udp://9.rarbg.com:2800/announce
udp://t1.pow7.com/announce
udp://tracker.torrentbay.to:6969/announce
udp://tracker.prq.to/announce
udp://tracker.istole.it:80/announce
udp://exodus.desync.com:6969/announce
udp://tracker.leechers-paradise.org:6969/announce
udp://9.rarbg.me:2740/announce
http://retracker.omsk.ru:2710/announce
udp://shadowshq.eddie4.nl:6969/announce
http://mgtracker.org:2710/announce
http://tracker.tfile.me/announce
udp://tracker.glotorrents.com:6969/announce
udp://eddie4.nl:6969/announce
udp://torrent.gresille.org:80/announce
udp://poloniumsurfer.tk:6969/announce
udp://tracker.pomf.se:80/announce
udp://sugoi.pomf.se:80/announce
udp://tracker.openbittorrent.com:80/announce
udp://10.rarbg.com/announce

UAKTUALNIENIE
11/07/2018 19:15:56 (Jeśeli nie widac seeda kliknij na [uaktualnij] by odswieżyć statystyki).
[Lub sprawdź programem do pobierania torrentów, ponieważ niektóre trackery nie wyświetlają statystyk]
22 pliki
 
KOMENTARZE


Brak komentarzy...

DODAJ KOMENTARZ

Zaloguj się aby dodawać komentarze !!!



Wstecz








WRÓĆ NA GÓRĘ